Coleccion audio latino de animes




General
Formato : AC-3
Formato/Info : Audio Coding 3
Tamaño del archivo : 390MB
Duración : 1h 25min.
Modo de tasa de bits : Constante
Tasa de bits total : 640Kbps

Audio
Formato : AC-3
Formato/Info : Audio Coding 3
Format_Settings_ModeExtension : CM (complete main)
Ajustes del formato, Endianness : Big
Duración : 1h 25min.
Tipo de tasa de bits : Constante
Tasa de bits : 640Kbps
Canal(es) : 6canales
Posiciones del canal : Front: L C R, Side: L R, LFE
Velocidad de muestreo : 48,0KHz
BitDepth/String : 16bits
Tamaño de pista : 390MB (100%)







General
Formato : AC-3
Formato/Info : Audio Coding 3
Tamaño del archivo : 258MB
Duración : 1h 33min.
Modo de tasa de bits : Constante
Tasa de bits total : 384Kbps

Audio
Formato : AC-3
Formato/Info : Audio Coding 3
Format_Settings_ModeExtension : CM (complete main)
Ajustes del formato, Endianness : Big
Duración : 1h 33min.
Tipo de tasa de bits : Constante
Tasa de bits : 384Kbps
Canal(es) : 6canales
Posiciones del canal : Front: L C R, Side: L R, LFE
Velocidad de muestreo : 48,0KHz
BitDepth/String : 16bits
Tamaño de pista : 258MB (100%)
Mediainfo




Format : AC-3
Format/Info : Audio Coding 3
File size : 86.7 MiB
Duration : 1h 3mn
Overall bit rate mode : Constant
Overall bit rate : 192 Kbps

Audio Format : AC-3
Format/Info : Audio Coding 3
Format profile : Dolby Digital
Mode extension : CM (complete main)
Format settings, Endianness : Big
Duration : 1h 3mn
Bit rate mode : Constant
Bit rate : 192 Kbps
Channel(s) : 2 channels
Channel positions : Front: L R
Sampling rate : 48.0 KHz
Frame rate : 31.250 fps (1536 spf)
Compression mode : Lossy
Stream size : 86.7 MiB (100%)















Format : AC-3
Format/Info : Audio Coding 3
File size : 300 MiB
Duration : 1h 33mn
Overall bit rate mode : Constant
Overall bit rate : 448 Kbps

Audio Format : AC-3
Format/Info : Audio Coding 3
Mode extension : CM (complete main)
Format settings, Endianness : Big
Duration : 1h 33mn
Bit rate mode : Constant
Bit rate : 448 Kbps
Channel(s) : 6 channels
Channel positions : Front: L C R, Side: L R, LFE
Sampling rate : 48.0 KHz
Frame rate : 31.250 fps (1536 spf)
Compression mode : Lossy
Stream size : 300 MiB (100%)

No hay comentarios:

Publicar un comentario

Popular Posts