Zero animes

martes, 21 de marzo de 2017

Code Geass: Hangyaku no Lelouch R2 [25/25] [BD 1080p][MEGA]
20:501 Comments


INFORMACION

Géneros: Ciencia Ficción, Acción, Mecha
Año: 2008
Estado: Completo 
Episodios: 25
Audio: Japones
Fansub: Dango-Speedo no Fansub
Resolución: 1920x1080p 
Calidad: Blu Ray
Peso: 1GB
Formato: MKV
Servidor: MEGA

Sinopsis

Ha pasado un año tras el fracaso de la Rebelión Negra encabezada por Zero, el Área 11 ha sido degradada por el Emperador de Britannia a la categoría de Área de Remediación. Esto ha resultado en la aplicación de sentencias más severas y el inicio de una profunda represión a los Caballeros Negros, arrestando a varios y cerrando sus operaciones. El Imperio también está en graves tensiones con otras dos de las grandes superpotencias mundiales, los EUU y la Federación China, que a su vez trata de conquistar el Área 11 sin luchar una guerra. Al mismo tiempo, Lelouch parece llevar una vida normal como estudiante y haber olvidado su rebelde pasado como Zero.


Reading Time:

miércoles, 15 de marzo de 2017

Nanatsu no Taizai - Seisen no Shirushi [02/04][Lat-Esp-Jap+Subs] [720p]
0:540 Comments


Título: Nanatsu no Taizai - Seisen no Shirushi
Géneros: Aventura, Shonen, y Fantasía
Año: 2016
Estado: Subiendo 
Episodios: 4
Raws: Leopard-Raws
Audio: Latino/Español/Japones
Fansub: Ñyuum
Resolución: 1280x720p HDTV
Peso: 500-700MB
Formato: MKV
Servidor: MEGA

Audios ripeados de netflix.

Sinopsis

Nanatsu no Taizai vuelve con un anticipo de lo que será su ya anunciada segunda temporada, esta vez se trata de un pequeño arco de cuatro episodios.



ImatgeImatge
ImatgeImatge




Reading Time:
Olympus Has Fallen (2013) [AC3 5.1][Rip de Netflix] Solo audio latino
0:200 Comments


Tras un accidente en el que sólo consigue salvar la vida del Presidente Asher (Aaron Eckhart), el agente del Servicio Secreto Mike Banning (Gerard Butler) decide dejar su puesto para trabajar en el Departamento del Tesoro. Pero, cuando un comando norcoreano liderado por Kang (Rick Yune) ataca la Casa Blanca y toma como rehenes al Presidente y a su equipo, Banning se verá obligado a entrar de nuevo en acción. 




Format : E-AC-3
Format/Info : Enhanced Audio Coding 3
File size : 164 MiB
Duration : 1 h 59 min
Overall bit rate mode : Constant
Overall bit rate : 192 kb/s

Audio
Format : E-AC-3
Format/Info : Enhanced Audio Coding 3
Format settings, Endianness : Big
Duration : 1 h 59 min
Bit rate mode : Constant
Bit rate : 192 kb/s
Channel(s) : 6 channels
Channel positions : Front: L C R, Side: L R, LFE
Sampling rate : 48.0 kHz
Frame rate : 187.500 FPS (256 spf)
Compression mode : Lossy
Stream size : 164 MiB (100%)



Audio intacto en 5.1 extraido de la app de Netflix en w10.

Reading Time:
Ajin [13/13][Lat/Jap+Subs][HDTV 720p x265]
0:020 Comments


Título: Ajin: Demi-Human 
Géneros:  Acción, Horror, Misterio, Seinen, Sobrenatural 
Año: 2016
Estado: Finalizado
Episodios: 13 
Raws: Underwater-µtw
Audios: AC3 ripeados de Netflix
Subtitulos: Ñyuum - Yoru no Kousen
Sincronización: Scarlet
Calidad: HDTV
Idioma: Latino-Japones
Resolución: 1280x720p
Formato: MKV
Codec: HEVC (x265)
Tamaño: 600MB

Sinopsis

Kei es un chico aplicado y reservado que se está esforzando sobre humanamente para ingresar en la facultad de medicina. Un día por no ver hacia un lado cruzando un paso peatonal es arrollado por un camión. Su cuerpo queda destrozado (y hasta se ve su brazo desprendido en el pavimento), rápidamente la calle se llena de pánico, las personas están si habla y el conductor del camión sólo puede tomar fotos para demostrar que el semáforo estaba en verde. Cuando de pronto, Kei se levanta como si nada (con brazo incluido) y todo el mundo alli presente se da cuenta que es un Ajin.







Reading Time:

viernes, 10 de marzo de 2017

 Jessica Jones (2015) T1 [13/13] [AC3 5.1] [Rip de Netflix] Solo audio latino
18:500 Comments

Siguiendo un trágico fin a su breve carrera como la super-heroína Joya (Jewel), 
Jessica Jones trata de reconstruir su vida como una detective privada, lidiando con casos que involucran a personas con habilidades destacadas en la ciudad de Nueva York.


                                                        Mediainfo:

Format : E-AC-3
Format/Info : Audio Coding 3
File size : 72.6 MiB
Duration : 52mn 49s
Overall bit rate mode : Constant
Overall bit rate : 192 Kbps

Audio
Format : E-AC-3
Format/Info : Audio Coding 3
Format settings, Endianness : Big
Duration : 52mn 49s
Bit rate mode : Constant
Bit rate : 192 Kbps
Channel(s) : 6 channels
Channel positions : Front: L C R, Side: L R, LFE
Sampling rate : 48.0 KHz
Frame rate : 187.500 fps (256 spf)
Compression mode : Lossy
Stream size : 72.6 MiB (100%)




Reading Time:
Rick y Morty Solo audio latino  Temporada 1 [AAC 2.0][Rip de Netflix]
17:33 2 Comments


La serie sigue las desventuras de un científico alcohólico, Rick, y su fácilmente influenciable nieto, Morty, quienes pasan el tiempo entre la vida doméstica familiar y los viajes espaciales intergalácticos. 


ormat                       : MPEG-4
Format profile              : Base Media / Version 2
Codec ID                    : mp42 (isom/iso2/dash/iso6)
File size                   : 15.4 MiB
Duration                    : 22 min 0 s
Overall bit rate mode       : Variable
Overall bit rate            : 97.8 kb/s
Encoded date                : UTC 2016-09-15 18:13:26
Tagged date                 : UTC 2016-09-15 18:13:26

Audio
ID                          : 1
Format                      : AAC
Format/Info                 : Advanced Audio Codec
Format profile              : HE-AAC / LC
Codec ID                    : 40
Duration                    : 22 min 0 s
Bit rate mode               : Variable
Bit rate                    : 96.0 kb/s
Maximum bit rate            : 156 kb/s
Channel(s)                  : 2 channels
Channel positions           : Front: L R
Sampling rate               : 48.0 kHz / 24.0 kHz
Frame rate                  : 23.438 FPS (1024 spf)
Compression mode            : Lossy
Stream size                 : 14.9 MiB (97%)
Encoded date                : UTC 2016-09-15 18:13:26
Tagged date                 : UTC 2016-09-15 18:13:26




Audio intacto extraido de netflix.

Reading Time:
El tirador (Shooter) 2016 [09/10] [AC3 5.1][Rip de Netflix] Solo audio latino
17:111 Comments
                       



La serie gira en torno de Bob Lee Swagger, un ex infante de la marina que vie en aislamiento. Él vuelve al servicio activo cuando descubre un complot para asesinar al Presidente.

Mediainfo

Format                      : E-AC-3
Format/Info                 : Audio Coding 3
File size                   : 58.5 MiB
Duration                    : 42mn 37s
Overall bit rate mode       : Constant
Overall bit rate            : 192 Kbps

Audio
Format                      : E-AC-3
Format/Info                 : Audio Coding 3
Format settings, Endianness : Big
Duration                    : 42mn 37s
Bit rate mode               : Constant
Bit rate                    : 192 Kbps
Channel(s)                  : 6 channels
Channel positions           : Front: L C R, Side: L R, LFE
Sampling rate               : 48.0 KHz
Frame rate                  : 187.500 fps (256 spf)
Compression mode            : Lossy
Stream size                 : 58.5 MiB (100%)

De ahora en mas voy a empezar a subir audios ripeados de netflix, lo que se signfica que estaran a la mayor calidad posible y en 5.1.

Si quieren algun audio en especial, solo dejen un comentario.


Reading Time:
Ghost in the Shell 2: Innocence [Lat-Cast-Jap+Subs][BD 1080p]
16:290 Comments


Título: Ghost in the Shell 2: Innocence
Géneros: Seinen, Ciencia Ficción, Acción
Año: 2004
Estado: Finalizado
Episodios: 1 
Raws: Anacronico Fansub
Audios: AC3 5.1 extraidos del DVD por RalphMikami
Subtitulos: Anacronico Fansub
Sincronización: Scarlet
Calidad: Blu Ray
Idioma: Latino(5.1) Castellano (2.0) Japones (6.1)
Resolución: 1920x1036 p
Formato: MKV
Codec: H264
Tamaño: 11.59 gigas

SINOPSIS

En el año 2032, la frontera entre seres humanos y máquinas se ha reducido a niveles casi imperceptibles. 
En este contexto, un cyborg detective de la unidad antiterrorista (Batou) investigará el caso de un robot con forma de mujer, creado exclusivamente para satisfacer deseos sexuales, que ha asesinado a su propietario. Batou deberá indagar en las profundidades de la conciencia humana y en la sociedad del momento; donde la diferencia entre los robots y los humanos es extremadamente vaga.







La contraseña es: Scarlet


Reading Time:

viernes, 3 de febrero de 2017

Little Witch Academia: The Enchanted Parade [Lat/Eng/Rus/Jap+Subs][BD 720p]
11:050 Comments


Título: Little Witch Academia: Mahoujikake no Parade
Géneros: Shojo, Fantasía, Aventura, Vida Escolar
Año: 2015
Estado: Finalizado
Episodios: 1 
Raws: Commie
Audios: AC3 Ripeados de Netflix
Subtitulos: Extraidos de Netflix
Calidad: Blu Ray
Idioma: Latino-Ingles-Ruso-Japones
Resolución: 1280x720p
Formato: MKV
Codec: H264
Tamaño: 1.13 Gigas


Sinopsis

Secuela del corto Little Witch Academia dirigida por Yoh Yoshinari y con guion de Masahiko Otsuka.

Akko Kagari es una chica normal que se une a la prestigiosa academia de brujas Luna Nova Academy. Cuando era joven, asistió a la Magical Festa, un festival de magia regentado por una bruja llamada Shiny Chariot. Akko quedó tan impresionada e inspirada por la actuación de Shiny Chariot que señó con convertirse en una bruja tan “genial” como ella, tomando además sus palabras como estilo de vida: “Nunca lo olvides, un corazón que cree es tu propia magia”. Como tarea de clase, Akko y sus compañeras se adentran en un laberinto bajo la Torre de Luna Nova. Aquí, un antiguo dragón es liberado por una de sus compañeras. Akko intenta pararle los pies a la criatura, pero…













Reading Time:

@way2themes